[Fshare] [Võ Thuật-Hành Động] Ninja Assassin 2009 ViE BDRip 1080p H265.FLAC.5.1-Sát Thủ Ninja

Thảo luận trong 'Phim có audio Việt' bắt đầu bởi tuankbas, 20/7/19.

  1. tuankbas

    tuankbas Well-Known Member

    Tham gia ngày:
    12/5/19
    Bài viết:
    760
    Đã được cảm ơn:
    17,362
    Điểm thành tích:
    93
    Giới tính:
    Nam
    Nghề nghiệp:
    công chức
    Nơi ở:
    Thành phố Vinh- Nghệ An
    Tiền:
    1,051 CR
    Ninja Assassin (2009)
    Sát thủ Ninja


    [​IMG]
    IMDb
    https://www.imdb.com/title/tt1186367/

    Tóm tắt nội dung

    Raizo (Rain) là một trong những sát thủ đáng sợ nhất trên thế giới, anh bị bắt cóc khi còn là một đứa trẻ và được gia tộc Ozunu nuôi dạy, một gia tộc bí ẩn. Khi bạn của Raizo bị gia tộc xử tử, Raizo bỏ trốn. Sau đó anh tái xuất và tìm cách trả thù. Trong khi đó, Mika Coretti (Naomie Harris) là một nhân viên của Europol, người điều tra số tiền có liên quan đến những vụ án mạng chính trị và tìm ra nó có liên hệ với gia tộc Ozunu. Cô cãi lệnh của chỉ huy, Ryan Maslow (Ben Miles), liều lĩnh tự khôi phục những tài liệu mật của tổ chức để tìm kiếm thêm thông tin. Gia tộc này phát hiện ra vụ điều tra và tìm cách ám sát Coretti, nhưng cô đã được Raizo giải cứu. Ẩn náu ở châu Âu, Raizo và Mika phải tìm ra cách để đánh bại gia tộc Ozunu.

    TRAILER

    SCREENSHOT
    [​IMG]
    [​IMG]
    [​IMG]
    [​IMG]

    Mediainfo
    Complete name : C:\Users\minhtuan\Downloads\Video\Ninja Assassin (2009) 1080p BluRay x265 10Bit HEVC.mkv
    Format : Matroska
    Format version : Version 4
    File size : 7.68 GiB
    Duration : 1 h 38 min
    Overall bit rate mode : Variable
    Overall bit rate : 11.1 Mb/s
    Movie name : Ninja Sát Thủ 2009-tuankbas
    Video
    ID : 1
    Format : HEVC
    Format/Info : High Efficiency Video Coding
    Format profile : Main 10@L4@Main
    Codec ID : V_MPEGH/ISO/HEVC
    Duration : 1 h 38 min
    Bit rate : 9 497 kb/s
    Width : 1 920 pixels
    Height : 1 080 pixels
    Display aspect ratio : 2.35:1
    Frame rate mode : Constant
    Frame rate : 23.976 (24000/1001) FPS
    Color space : YUV
    Chroma subsampling : 4:2:0
    Bit depth : 10 bits
    Bits/(Pixel*Frame) : 0.191
    Stream size : 6.55 GiB (85%)
    Audio #2
    ID : 4
    Format : FLAC
    Format/Info : Free Lossless Audio Codec
    Codec ID : A_FLAC
    Duration : 1 h 38 min
    Bit rate mode : Variable
    Bit rate : 997 kb/s
    Channel(s) : 6 channels
    Channel layout : L R C LFE Ls Rs
    Sampling rate : 48.0 kHz
    Frame rate : 11.719 FPS (4096 SPF)
    Bit depth : 16 bits
    Compression mode : Lossless
    Delay relative to video : -5 ms
    Stream size : 703 MiB (9%)
    Writing library : libFLAC 1.3.2 (UTC 2017-01-01)
    Language : Vietnamese
    Default : Yes
    Forced : No
    Nhấn nút Cảm ơn (dưới chân bài) để thấy link!

    7.7Gb

     
    vunok, hung002059, tinhyeu44 and 17 others like this.

Chia sẻ trang này