[Fshare] [Viễn Tưởng] Pokémon Detective Pikachu.2019.ViE.1080p.HDRip.X264.AC3-EVO-Thám Tử Pikachu

Thảo luận trong 'Phim có audio Việt' bắt đầu bởi tuankbas, 17/7/19.

  1. tuankbas

    tuankbas Well-Known Member

    Tham gia ngày:
    12/5/19
    Bài viết:
    745
    Đã được cảm ơn:
    16,759
    Điểm thành tích:
    93
    Giới tính:
    Nam
    Nghề nghiệp:
    công chức
    Nơi ở:
    Thành phố Vinh- Nghệ An
    Tiền:
    1,028 CR
    Thám Tử Pikachu
    Thuyết minh Việt
    [​IMG]
    [​IMG]

    Tóm Tắt Nội Dung
    Trong một thế giới nơi mọi người thu thập những con quái vật bỏ túi (Pokémon) để chiến đấu, một cậu bé tình cờ gặp một con quái vật thông minh muốn trở thành một thám tử.

    Trailer


    Screenshot
    [​IMG]
    [​IMG]
    [​IMG]
    Media info
    Complete name Pokémon Detective Pikachu.2019.1080p.HDRip.X264.AC3-EVO.mkv
    Format : Matroska
    Format version : Version 4
    File size : 3.96 GiB
    Duration : 1 h 37 min
    Overall bit rate : 5 826 kb/s
    Movie name : Thám Tử Pikachu
    Video
    ID : 2
    Format : AVC
    Format/Info : Advanced Video Codec
    Format profile : High@L4.1
    Format settings : CABAC / 5 Ref Frames
    Format settings, CABAC : Yes
    Format settings, Reference : 5 frames
    Codec ID : V_MPEG4/ISO/AVC
    Duration : 1 h 37 min
    Bit rate : 4 897 kb/s
    Width : 1 920 pixels
    Height : 800 pixels
    Display aspect ratio : 2.40:1
    Frame rate mode : Constant
    Frame rate : 30.303 FPS
    Color space : YUV
    Chroma subsampling : 4:2:0
    Bit depth : 8 bits
    Scan type : Progressive
    Bits/(Pixel*Frame) : 0.105
    Stream size : 3.35 GiB (85%)
    Audio #1
    ID : 1
    Format : AC-3
    Format/Info : Audio Coding 3
    Commercial name : Dolby Digital
    Codec ID : A_AC3
    Duration : 1 h 37 min
    Bit rate mode : Constant
    Bit rate : 384 kb/s
    Channel(s) : 6 channels
    Channel layout : L R C LFE Ls Rs
    Sampling rate : 48.0 kHz
    Frame rate : 31.250 FPS (1536 SPF)
    Bit depth : 16 bits
    Compression mode : Lossy
    Delay relative to video : -64 ms
    Stream size : 267 MiB (7%)
    Language : English
    Service kind : Complete Main
    Default : Yes
    Forced : No

    Audio #2
    ID : 3
    Format : AC-3
    Format/Info : Audio Coding 3
    Commercial name : Dolby Digital
    Codec ID : A_AC3
    Duration : 1 h 37 min
    Bit rate mode : Constant
    Bit rate : 512 kb/s
    Channel(s) : 2 channels
    Channel layout : L R
    Sampling rate : 48.0 kHz
    Frame rate : 31.250 FPS (1536 SPF)
    Bit depth : 16 bits
    Compression mode : Lossy
    Delay relative to video : -66 ms
    Stream size : 357 MiB (9%)
    Title : tuankbas
    Language : Vietnamese
    Service kind : Complete Mai
    Nhấn nút Cảm ơn (dưới chân bài) để thấy link!

    4Gb

    Bản Bluray 1080p
    Nhấn nút Cảm ơn (dưới chân bài) để thấy link!

    Bản Bluray REMUX 1080P
    Nhấn nút Cảm ơn (dưới chân bài) để thấy link!

    Bản ISO 1080p
    Nhấn nút Cảm ơn (dưới chân bài) để thấy link!
     
    Chỉnh sửa cuối: 25/7/19
  2. haovh_85

    haovh_85 Well-Known Member

    Tham gia ngày:
    17/6/09
    Bài viết:
    1,161
    Đã được cảm ơn:
    807
    Điểm thành tích:
    113
    Tiền:
    2,042 CR
    Cảm ơn bác!
     
  3. haovh_85

    haovh_85 Well-Known Member

    Tham gia ngày:
    17/6/09
    Bài viết:
    1,161
    Đã được cảm ơn:
    807
    Điểm thành tích:
    113
    Tiền:
    2,042 CR
    Cảm ơn bác!
     
  4. haovh_85

    haovh_85 Well-Known Member

    Tham gia ngày:
    17/6/09
    Bài viết:
    1,161
    Đã được cảm ơn:
    807
    Điểm thành tích:
    113
    Tiền:
    2,042 CR
    Cảm ơn bác!
     
  5. tuankbas

    tuankbas Well-Known Member

    Tham gia ngày:
    12/5/19
    Bài viết:
    745
    Đã được cảm ơn:
    16,759
    Điểm thành tích:
    93
    Giới tính:
    Nam
    Nghề nghiệp:
    công chức
    Nơi ở:
    Thành phố Vinh- Nghệ An
    Tiền:
    1,028 CR
    Có Bluray rồi nhé
     
  6. tuankbas

    tuankbas Well-Known Member

    Tham gia ngày:
    12/5/19
    Bài viết:
    745
    Đã được cảm ơn:
    16,759
    Điểm thành tích:
    93
    Giới tính:
    Nam
    Nghề nghiệp:
    công chức
    Nơi ở:
    Thành phố Vinh- Nghệ An
    Tiền:
    1,028 CR
    ISO 1080p
    Nhấn nút Cảm ơn (dưới chân bài) để thấy link!
     
    fsvnhd cảm ơn bài này.

Chia sẻ trang này