[Fshare] Planet Carnivore (2007) Complete 1080i HDTV-KhoHD ~ Động Vật Săn Mồi - 4/4

Thảo luận trong 'Phim tài liệu - Documentaries' bắt đầu bởi hoaitrung, 1/12/12.

  1. hoaitrung

    hoaitrung Moderator Thành viên BQT

    Tham gia ngày:
    13/12/09
    Bài viết:
    2,875
    Đã được cảm ơn:
    25,983
    Điểm thành tích:
    113
    Giới tính:
    Nam
    Nghề nghiệp:
    HD Documentaries
    Nơi ở:
    Việt nam
    Web:
    Tiền:
    4,476 CR
    Planet Carnivore (2007) Complete 1080i HDTV-KhoHD
    Động Vật Săn Mồi Trên Trái Đất
    4 Tập (Sub Việt)


    Bộ phim Planet Carnivore - Động Vật Ăn Thịt Trên Trái Đất - Gồm 4 tập :
    Planet Carnivore: Icebear - Gấu Băng
    Planet Carnivore: Great White Shark - Cá Mập Trắng

    Planet Carnivore: Lion - Sư Tử

    Planet Carnivore: King Bear - Vua Gấu

    Vua Gấu
    [​IMG]
    [​IMG]
    [​IMG]
    [​IMG]
    [​IMG]


    Sư Tử
    [​IMG]
    [​IMG]
    [​IMG]
    [​IMG]
    [​IMG]


    Gấu Băng
    [​IMG]
    [​IMG]
    [​IMG]
    [​IMG]
    [​IMG]


    Cá Mập Trắng
    [​IMG]
    [​IMG]
    [​IMG]
    [​IMG]
    [​IMG]


    Media Info

    Mã:
    Planet Carnivore (2007)  Complete 1080i HDTV AVC_BHT (SubViet).mkv
       General
          Unique ID : 182456258409918362274489583163914892779 (0x8943CC12C281C7338E336213A270B5EB)
          Complete name : D:\000 Phim Bo Chua Xong\Planet Carnivore\Planet Carnivore - Lion 1080i HDTV AVC_BHT (SubViet).mkv
          Format : Matroska
          Format version : Version 2
          File size : 2.44 GiB
          Duration : 47mn 37s
          Overall bit rate : 7 337 Kbps
          Encoded date : UTC 2012-12-01 14:15:54
          Writing application : mkvmerge v5.8.0 ('No Sleep / Pillow') built on Sep  2 2012 15:37:04
          Writing library : libebml v1.2.3 + libmatroska v1.3.0
       Video #1
          ID : 1
          Format : AVC
          Format/Info : Advanced Video Codec
          Format profile : High@L4.0
          Format settings, CABAC : Yes
          Format settings, ReFrames : 3 frames
          Muxing mode : Header stripping
          Codec ID : V_MPEG4/ISO/AVC
          Duration : 47mn 37s
          Bit rate : 6 999 Kbps
          Width : 1 920 pixels
          Height : 1 080 pixels
          Display aspect ratio : 16:9
          Frame rate mode : Constant
          Frame rate : 25.000 fps
          Color space : YUV
          Chroma subsampling : 4:2:0
          Bit depth : 8 bits
          Scan type : Interlaced
          Scan order : Top Field First
          Bits/(Pixel*Frame) : 0.135
          Stream size : 2.33 GiB (95%)
          Default : Yes
          Forced : No
          Color primaries : BT.709
          Transfer characteristics : BT.709
          Matrix coefficients : BT.709
       Audio #2
          ID : 2
          Format : MPEG Audio
          Format version : Version 1
          Format profile : Layer 2
          Muxing mode : Header stripping
          Codec ID : A_MPEG/L2
          Codec ID/Hint : MP2
          Duration : 47mn 37s
          Bit rate mode : Constant
          Bit rate : 192 Kbps
          Channel(s) : 2 channels
          Sampling rate : 48.0 KHz
          Compression mode : Lossy
          Stream size : 65.4 MiB (3%)
          Language : English
          Default : Yes
          Forced : No
    

    DOWNLOAD
    Nhấn nút Cảm ơn (dưới chân bài) để thấy link!
     
    Chỉnh sửa cuối: 21/6/19
    borea, thuc, naminh71 and 22 others like this.
  2. anhchangleloi

    anhchangleloi Member

    Tham gia ngày:
    11/12/09
    Bài viết:
    116
    Đã được cảm ơn:
    3
    Điểm thành tích:
    18
    Tiền:
    401 CR
    Ðề: NATGEO - Planet Carnivore (2007) Complete 1080i HDTV AVC_BHT - Động Vật Săn Mồi - 4/4 (Sub Việt)

    Có file sub riêng không hoaitrung ơi ?
     
  3. trinhvandat

    trinhvandat New Member

    Tham gia ngày:
    1/4/12
    Bài viết:
    7
    Đã được cảm ơn:
    6
    Điểm thành tích:
    3
    Tiền:
    38 CR
    Ðề: NATGEO - Planet Carnivore (2007) Complete 1080i HDTV AVC_BHT - Động Vật Săn Mồi - 4/4 (Sub Việt)

    ..........................................................................
     
  4. pandemonium

    pandemonium Well-Known Member

    Tham gia ngày:
    11/2/12
    Bài viết:
    953
    Đã được cảm ơn:
    353
    Điểm thành tích:
    63
    Tiền:
    2,140 CR
    Ðề: NATGEO - Planet Carnivore (2007) Complete 1080i HDTV AVC_BHT - Động Vật Săn Mồi - 4/4 (Sub Việt)

    Quá tuyệt vời luôn, thanks bác :D
     
  5. vinhnct

    vinhnct New Member

    Tham gia ngày:
    20/3/10
    Bài viết:
    13
    Đã được cảm ơn:
    4
    Điểm thành tích:
    3
    Tiền:
    114 CR
    Ðề: NATGEO - Planet Carnivore (2007) Complete 1080i HDTV AVC_BHT - Động Vật Săn Mồi - 4/4 (Sub Việt)

    Sao em không thấy nút thanks để get link nhỉ, mà lnk cũng chẳng thấy đâu?
     
  6. hoaitrung

    hoaitrung Moderator Thành viên BQT

    Tham gia ngày:
    13/12/09
    Bài viết:
    2,875
    Đã được cảm ơn:
    25,983
    Điểm thành tích:
    113
    Giới tính:
    Nam
    Nghề nghiệp:
    HD Documentaries
    Nơi ở:
    Việt nam
    Web:
    Tiền:
    4,476 CR
    Re-up fshare 06/2019
     
    Chỉnh sửa cuối: 17/6/19
    ilmvmvm77, tlamhp and yeperica like this.
  7. tlamhp

    tlamhp Active Member

    Tham gia ngày:
    23/7/12
    Bài viết:
    334
    Đã được cảm ơn:
    98
    Điểm thành tích:
    28
    Giới tính:
    Nam
    Nghề nghiệp:
    Housekeeper
    Nơi ở:
    Oakland CA USA
    Tiền:
    938 CR
    Nhiều khi nhanh quá cũng chưa có đủ link nữa. Cứ bình tĩnh down những cái đã có rồi refresh là nó lại có đủ hết.
     
    #7 +1 CR
    ilmvmvm77 cảm ơn bài này.
  8. tudotuong

    tudotuong Well-Known Member

    Tham gia ngày:
    6/9/10
    Bài viết:
    668
    Đã được cảm ơn:
    520
    Điểm thành tích:
    93
    Tiền:
    1,160 CR
    hoaitrung cảm ơn bài này.

Chia sẻ trang này