[Hành Động-Viễn Tưởng]Men.in.Black.International.2019.1080p.KORSUB.HDRip.x264.AAC2.0-Đặc vụ áo đen

Thảo luận trong 'WEB-DL, HDTV' bắt đầu bởi tuankbas, 21/7/19.

  1. tuankbas

    tuankbas Well-Known Member

    Tham gia ngày:
    12/5/19
    Bài viết:
    760
    Đã được cảm ơn:
    17,361
    Điểm thành tích:
    93
    Giới tính:
    Nam
    Nghề nghiệp:
    công chức
    Nơi ở:
    Thành phố Vinh- Nghệ An
    Tiền:
    1,051 CR
    Men in Black International 2019
    Đặc vụ áo đen: Sứ mệnh toàn cầu
    [​IMG]
    [​IMG]

    Đặc vụ áo đen: Sứ mệnh toàn cầu (tiếng Anh: Men in Black: International) là phim hài hành động khoa học viễn tưởng Mỹ năm 2019 của đạo diễn F. Gary Gray và được viết bởi Art Marcum và Matt Holloway. Đây là một phần phụ của loạt phim Men in Black, dựa trên bộ truyện tranh cùng tên của Malibu/Marvel của Lowell Cunningham. Bộ phim có sự tham gia của các diễn viên Chris Hemsworth, Tessa Thompson, Kumail Nanjiani, Rebecca Ferguson, Rafe Spall, Laurent và Larry Bourgeois, và Liam Neeson, cùng với Emma Thompson đảm nhận vai diễn của anh trong Men in Black 3 và Tim Blaney đảm nhận vai diễn của anh trong vai chó pug Frank trong 2 bộ phim đầu tiên.
    Tin đồn về bộ phim Men in Black thứ 4 bắt đầu sau khi phát hành Men in Black 3 vào năm 2012. Vào tháng 2 năm 2018, Hemsworth đã ký hợp đồng để dẫn dắt một spin-off trong khi Gray được thuê để chỉ đạo, và Thompson đã tham gia vào tháng sau. Việc quay phim diễn ra tại thành phố New York, Morocco, Ý và London từ tháng 7 đến tháng 10 năm 2018.

    Đặc vụ áo đen: Sứ mệnh toàn cầu được phát hành tại Mỹ vào ngày 14 tháng 6 năm 2019 bởi Sony Pictures Releasing, dưới nhãn hiệu Columbia Pictures. Bộ phim đã nhận được những đánh giá tiêu cực từ các nhà phê bình, những người chỉ trích "hành động mờ nhạt và cốt truyện đáng quên", mặc dù sự phối hợp giữa Hemsworth và Thompson được khen ngợi.[5]

    Trailer


    Screenshot
    [​IMG]
    [​IMG]
    [​IMG]
    [​IMG]
    Media info
    Format : MPEG-4
    Format profile : Base Media
    Codec ID : isom (isom/iso2/avc1/mp41)
    File size : 3.88 GiB
    Duration : 1 h 54 min
    Overall bit rate : 4 832 kb/s
    Video
    ID : 1
    Format : AVC
    Format/Info : Advanced Video Codec
    Format profile : Baseline@L4
    Format settings : 1 Ref Frames
    Format settings, CABAC : No
    Format settings, Reference : 1 frame
    Codec ID : avc1
    Codec ID/Info : Advanced Video Coding
    Duration : 1 h 54 min
    Bit rate : 4 603 kb/s
    Width : 1 920 pixels
    Height : 1 080 pixels
    Display aspect ratio : 16:9
    Frame rate mode : Variable
    Frame rate : 23.976 (24000/1001) FPS
    Minimum frame rate : 23.578 FPS
    Maximum frame rate : 25.000 FPS
    Color space : YUV
    Chroma subsampling : 4:2:0
    Bit depth : 8 bits
    Scan type : Progressive
    Bits/(Pixel*Frame) : 0.093
    Stream size : 3.70 GiB (95%)
    Audio
    ID : 2
    Format : AAC LC
    Format/Info : Advanced Audio Codec Low Complexity
    Codec ID : mp4a-40-2
    Duration : 1 h 54 min
    Duration_LastFrame : 1 ms
    Bit rate mode : Constant
    Bit rate : 224 kb/s
    Channel(s) : 2 channels
    Channel layout : L R
    Sampling rate : 48.0 kHz
    Frame rate : 46.875 FPS (1024 SPF)
    Compression mode : Lossy
    Stream size : 184 MiB (5%)
    Fshare
    Nhấn nút Cảm ơn (dưới chân bài) để thấy link!

    3.88Gb
     
    Chỉnh sửa cuối: 21/7/19
  2. hukita

    hukita New Member

    Tham gia ngày:
    28/8/14
    Bài viết:
    13
    Đã được cảm ơn:
    10
    Điểm thành tích:
    3
    Tiền:
    643 CR
    Post đúng địa chỉ đi ông ơi chứ toàn post lung tung. WebDL mà cứ đi post HDRIP hay CAM.
     
    #2 +1 CR
  3. tuankbas

    tuankbas Well-Known Member

    Tham gia ngày:
    12/5/19
    Bài viết:
    760
    Đã được cảm ơn:
    17,361
    Điểm thành tích:
    93
    Giới tính:
    Nam
    Nghề nghiệp:
    công chức
    Nơi ở:
    Thành phố Vinh- Nghệ An
    Tiền:
    1,051 CR
    Tú Thái and StarHD like this.
  4. StarHD

    StarHD Well-Known Member

    Tham gia ngày:
    31/12/11
    Bài viết:
    830
    Đã được cảm ơn:
    630
    Điểm thành tích:
    93
    Giới tính:
    Nam
    Nơi ở:
    VietNam
    Tiền:
    2,636 CR
    HD-Rip & CAM post bên đây là đùng rùi :) Bác khó tánh ghê...
     
    #4 +1 CR
    tuankbas cảm ơn bài này.

Chia sẻ trang này