[Hành Động -Collection] Jason Bourne 2002-2016 1080p.BluRay.DTS.x264-Siêu Điệp Viên

Thảo luận trong 'Fshare.vn' bắt đầu bởi tuankbas, 20/7/19.

  1. tuankbas

    tuankbas Well-Known Member

    Tham gia ngày:
    12/5/19
    Bài viết:
    739
    Đã được cảm ơn:
    16,397
    Điểm thành tích:
    93
    Giới tính:
    Nam
    Nghề nghiệp:
    công chức
    Nơi ở:
    Thành phố Vinh- Nghệ An
    Tiền:
    1,019 CR
    Jason Bourne 2002-2016
    Siêu Điệp Viên Bourne
    Sub Việt mux sẵn
    [​IMG]
    [​IMG]


    Tóm Tắt Nội Dung

    Ngoài khơi biển Địa Trung Hải, chiếc tàu đánh cá đã cứu được một chàng trai đang trôi vật vờ theo sóng nước, người đầy vết đạn bắn. Anh không biết mình là ai, mình đã làm gì… Manh mối lờ mờ duy nhất là dòng chữ ghi địa chỉ một ngân hàng Thuỵ Sĩ do con chip laser cấy vào người anh phát ra. Sau khi tàu cập bến, anh lên đường lao vào cuộc tìm kiếm lại quá khứ. Liệu anh sẽ tìm ra được những gì trong quá khứ?
    Trailer

    Screenshot
    [​IMG]
    [​IMG]
    [​IMG]
    [​IMG]
    [​IMG]
    [​IMG]
    [​IMG]
    [​IMG]
    [​IMG]
    Meda info 1 phim

    Complete name : D:\Jacson bourne\The Bourne Identity.2002.1080p.BluRay.DTS.x264.mkv
    Format : Matroska
    Format version : Version 4
    File size : 12.4 GiB
    Duration : 1 h 58 min
    Overall bit rate : 15.0 Mb/s
    Movie name : Danh tính của Bourne 2002
    Video
    ID : 1
    Format : AVC
    Format/Info : Advanced Video Codec
    Format profile : High@L4.1
    Format settings : CABAC / 5 Ref Frames
    Format settings, CABAC : Yes
    Format settings, Reference : 5 frames
    Codec ID : V_MPEG4/ISO/AVC
    Duration : 1 h 58 min
    Bit rate : 13.5 Mb/s
    Width : 1 920 pixels
    Height : 816 pixels
    Display aspect ratio : 2.35:1
    Frame rate mode : Constant
    Frame rate : 23.976 (23976/1000) FPS
    Original frame rate : 23.976 (24000/1001) FPS
    Color space : YUV
    Chroma subsampling : 4:2:0
    Bit depth : 8 bits
    Scan type : Progressive
    Bits/(Pixel*Frame) : 0.359
    Stream size : 11.1 GiB (90%)
    Audio
    ID : 2
    Format : DTS
    Format/Info : Digital Theater Systems
    Codec ID : A_DTS
    Duration : 1 h 58 min
    Bit rate mode : Constant
    Bit rate : 1 509 kb/s
    Channel(s) : 6 channels
    Channel layout : C L R Ls Rs LFE
    Sampling rate : 48.0 kHz
    Frame rate : 93.750 FPS (512 SPF)
    Bit depth : 24 bits
    Compression mode : Lossy
    Stream size : 1.25 GiB (10%)
    Language : English
    Default : Yes

    Foder 5 phim
    Nhấn nút Cảm ơn (dưới chân bài) để thấy link!

    Size: 71.6Gb
     
    Chỉnh sửa cuối: 20/7/19

Chia sẻ trang này