[Fshare] [Hành động-Collection] Blade 1998-2004 ViE 1080p.BluRay.DTS.x264-Z0N3- Săn Quỷ

Thảo luận trong 'Phim có audio Việt' bắt đầu bởi tuankbas, 20/7/19.

  1. tuankbas

    tuankbas Well-Known Member

    Tham gia ngày:
    12/5/19
    Bài viết:
    797
    Đã được cảm ơn:
    18,706
    Điểm thành tích:
    93
    Giới tính:
    Nam
    Nghề nghiệp:
    công chức
    Nơi ở:
    Thành phố Vinh- Nghệ An
    Tiền:
    1,112 CR
    Blade 1-2-3
    Săn Quỷ

    Thuyết minh việt
    [​IMG]
    [​IMG]

    Tóm Tắt Nội Dung

    Mang trong mình dòng máu ma cà rồng nhưng Blade lại căm thù những kẻ đồng loại muốn cai trị con người. Khi nữ bác sỹ Karen bị ma cà rồng tấn công, Blade giải cứu và tìm mọi cách cứu chữa cho cô. Trong khi đó, chúa đảng ma cà rồng Deacon Frost toan tính cuộc tấn công vào nhân loại.

    Trailer

    Screenshot
    [​IMG]
    [​IMG]
    [​IMG]
    [​IMG]
    [​IMG]
    Media info 1 phim

    Complete name : C:\Users\minhtuan\Downloads\Video\Blade.1998.ViE.1080p.BluRay.DTS.x264.D-Z0N3.mkv
    Format : Matroska
    Format version : Version 4
    File size : 13.1 GiB
    Duration : 2 h 0 min
    Overall bit rate : 15.6 Mb/s
    Video
    ID : 1
    Format : AVC
    Format/Info : Advanced Video Codec
    Format profile : High@L4.1
    Format settings : CABAC / 5 Ref Frames
    Format settings, CABAC : Yes
    Format settings, Reference : 5 frames
    Codec ID : V_MPEG4/ISO/AVC
    Duration : 2 h 0 min
    Bit rate : 12.5 Mb/s
    Width : 1 920 pixels
    Height : 800 pixels
    Display aspect ratio : 2.40:1
    Frame rate mode : Constant
    Frame rate : 23.976 (24000/1001) FPS
    Color space : YUV
    Chroma subsampling : 4:2:0
    Bit depth : 8 bits
    Scan type : Progressive
    Bits/(Pixel*Frame) : 0.339
    Stream size : 10.5 GiB (80%)
    Audio #1
    ID : 2
    Format : DTS ES XXCH
    Format/Info : Digital Theater Systems
    Commercial name : DTS-ES Discrete
    Codec ID : A_DTS
    Duration : 2 h 0 min
    Bit rate mode : Constant
    Bit rate : 1 509 kb/s
    Channel(s) : 6 channels
    Channel(s)_Original : 7 channels
    ChannelLayout_Original : C L R Ls Rs Cs LFE
    Sampling rate : 48.0 kHz
    Frame rate : 93.750 FPS (512 SPF)
    Bit depth : 24 bits
    Compression mode : Lossy
    Stream size : 1.27 GiB (10%)
    Title : Vietnamese DTS 6.1 @ 1 509 Kbps | ATN |
    Language : Vietnamese
    Default : Yes
    Forced : No

    Blade 1998
    Nhấn nút Cảm ơn (dưới chân bài) để thấy link!

    Size: 13Gb


     
  2. tuankbas

    tuankbas Well-Known Member

    Tham gia ngày:
    12/5/19
    Bài viết:
    797
    Đã được cảm ơn:
    18,706
    Điểm thành tích:
    93
    Giới tính:
    Nam
    Nghề nghiệp:
    công chức
    Nơi ở:
    Thành phố Vinh- Nghệ An
    Tiền:
    1,112 CR
    Blade 2002
    Nhấn nút Cảm ơn (dưới chân bài) để thấy link!
     
  3. tuankbas

    tuankbas Well-Known Member

    Tham gia ngày:
    12/5/19
    Bài viết:
    797
    Đã được cảm ơn:
    18,706
    Điểm thành tích:
    93
    Giới tính:
    Nam
    Nghề nghiệp:
    công chức
    Nơi ở:
    Thành phố Vinh- Nghệ An
    Tiền:
    1,112 CR
    Blade 2004
    Nhấn nút Cảm ơn (dưới chân bài) để thấy link!
     

Chia sẻ trang này