[ Bikini | Remux | M2TS | 1link ] Beach Angels Kurashina Kana in South Stradbroke Island Blu-ray 108

Thảo luận trong 'Bluray Remux' bắt đầu bởi xemaydinh, 8/1/14.

  1. xemaydinh

    xemaydinh Tem

    Tham gia ngày:
    3/7/10
    Bài viết:
    29,287
    Đã được cảm ơn:
    67,348
    Điểm thành tích:
    113
    Tiền:
    19,063 CR
    Beach.Angels.Kurashina.Kana.in.South.Stradbroke.Is land.Blu-ray.1080i.AVC.DD2.0
    Người Đẹp Nhật Bản



    [​IMG]

    [​IMG]





    Mã:
    General
    ID                                       : 0 (0x0)
    Complete name                            : D:\Beach.Angels.Kurashina.Kana.in.South.Stradbroke  .Island.Blu-ray.1080i.AVC.DD2.0\BDMV\STREAM\00000.m2ts
    Format                                   : BDAV
    Format/Info                              : Blu-ray Video
    File size                                : 13.1 GiB
    Duration                                 : 46mn 36s
    Overall bit rate mode                    : Variable
    Overall bit rate                         : 40.3 Mbps
    Maximum Overall bit rate                 : 48.0 Mbps
    
    Video #1
    ID                                       : 4113 (0x1011)
    Menu ID                                  : 1 (0x1)
    Format                                   : AVC
    Format/Info                              : Advanced Video Codec
    Format profile                           : High@L4.1
    Format settings, CABAC                   : Yes
    Format settings, ReFrames                : 4 frames
    Format settings, GOP                     : M=3, N=24
    Codec ID                                 : 27
    Duration                                 : 46mn 35s
    Bit rate mode                            : Variable
    Maximum bit rate                         : 33.0 Mbps
    Width                                    : 1 920 pixels
    Height                                   : 1 080 pixels
    Display aspect ratio                     : 16:9
    Frame rate                               : 29.970 fps
    Standard                                 : NTSC
    Color space                              : YUV
    Chroma subsampling                       : 4:2:0
    Bit depth                                : 8 bits
    Scan type                                : MBAFF
    Color primaries                          : BT.709
    Transfer characteristics                 : BT.709
    Matrix coefficients                      : BT.709
    
    Video #2
    ID                                       : 6912 (0x1B00)
    Menu ID                                  : 1 (0x1)
    Format                                   : AVC
    Format/Info                              : Advanced Video Codec
    Format profile                           : High@L3.2
    Format settings, CABAC                   : Yes
    Format settings, ReFrames                : 4 frames
    Format settings, GOP                     : M=3, N=18
    Codec ID                                 : 27
    Duration                                 : 46mn 35s
    Bit rate mode                            : Variable
    Maximum bit rate                         : 6 900 Kbps
    Width                                    : 720 pixels
    Height                                   : 480 pixels
    Display aspect ratio                     : 4:3
    Frame rate                               : 29.970 fps
    Standard                                 : NTSC
    Color space                              : YUV
    Chroma subsampling                       : 4:2:0
    Bit depth                                : 8 bits
    Scan type                                : MBAFF
    Color primaries                          : BT.601 NTSC
    Transfer characteristics                 : BT.601
    Matrix coefficients                      : BT.601
    
    Audio #1
    ID                                       : 4352 (0x1100)
    Menu ID                                  : 1 (0x1)
    Format                                   : AC-3
    Format/Info                              : Audio Coding 3
    Mode extension                           : CM (complete main)
    Format settings, Endianness              : Big
    Codec ID                                 : 129
    Duration                                 : 46mn 35s
    Bit rate mode                            : Constant
    Bit rate                                 : 640 Kbps
    Channel count                            : 2 channels
    Channel positions                        : Front: L R
    Sampling rate                            : 48.0 KHz
    Bit depth                                : 16 bits
    Compression mode                         : Lossy
    Stream size                              : 213 MiB (2%)
    
    Audio #2
    ID                                       : 4353 (0x1101)
    Menu ID                                  : 1 (0x1)
    Format                                   : AC-3
    Format/Info                              : Audio Coding 3
    Mode extension                           : CM (complete main)
    Format settings, Endianness              : Big
    Codec ID                                 : 129
    Duration                                 : 46mn 35s
    Bit rate mode                            : Constant
    Bit rate                                 : 640 Kbps
    Channel count                            : 2 channels
    Channel positions                        : Front: L R
    Sampling rate                            : 48.0 KHz
    Bit depth                                : 16 bits
    Compression mode                         : Lossy
    Stream size                              : 213 MiB (2%)


    [​IMG]


    [​IMG]
    [​IMG]
    [​IMG]

    [​IMG]


    [video=youtube;ch53t0a6D_M]http://www.youtube.com/watch?v=ch53t0a6D_M[/video]






    1 link Fshare ~13.11GB


    Nhấn nút Cảm ơn (dưới chân bài) để thấy link!






    Sub Việt




    [​IMG] [​IMG] [​IMG]







    D/S phim hay duoc chon loc
     
  2. laptrinhtinhyeu305

    laptrinhtinhyeu305 Well-Known Member

    Tham gia ngày:
    3/3/12
    Bài viết:
    1,544
    Đã được cảm ơn:
    541
    Điểm thành tích:
    83
    Giới tính:
    Nam
    Nghề nghiệp:
    Tự Do
    Nơi ở:
    HCMC
    Tiền:
    279 CR
    Ðề: [ Bikini | Remux | M2TS | 1link ] Beach Angels Kurashina Kana in South Stradbroke Island Blu-ray 1080i AVC.DD2.0 - Người Đẹp Nhật Bản

    [video=youtube;UCvulPl3h7g]http://www.youtube.com/watch?v=UCvulPl3h7g[/video]

    onli youtube nhé các bác :D
    cám ơn bác chủ thớt nhé, em này đẹp quá.
     
  3. thaotienvinhan

    thaotienvinhan Active Member

    Tham gia ngày:
    27/2/10
    Bài viết:
    651
    Đã được cảm ơn:
    58
    Điểm thành tích:
    28
    Tiền:
    192 CR
    Ðề: [ Bikini | Remux | M2TS | 1link ] Beach Angels Kurashina Kana in South Stradbroke Island Blu-ray 1080i AVC.DD2.0 - Người Đẹp Nhật Bản

    Đẹp hả các Bác, em yêu cái đẹp, thanks các bác ....!
     
  4. Music Hunter

    Music Hunter Member

    Tham gia ngày:
    1/11/11
    Bài viết:
    779
    Đã được cảm ơn:
    3
    Điểm thành tích:
    16
    Tiền:
    394 CR
    Ðề: [ Bikini | Remux | M2TS | 1link ] Beach Angels Kurashina Kana in South Stradbroke Island Blu-ray 1080i AVC.DD2.0 - Người Đẹp Nhật Bản

    Cái này lúc trước bác saleem đã post sau khi mix audio ( liên khúc chiều mưa), đã có rồi nhưng thanks bác đã chia sẽ:)
     
  5. longthanbang

    longthanbang New Member

    Tham gia ngày:
    15/2/12
    Bài viết:
    3
    Đã được cảm ơn:
    0
    Điểm thành tích:
    1
    Tiền:
    194 CR
    Ðề: [ Bikini | Remux | M2TS | 1link ] Beach Angels Kurashina Kana in South Stradbroke Island Blu-ray 1080i AVC.DD2.0 - Người Đẹp Nhật Bản

    Em này trông ngọt quá!
    Thanks bác đã share cho ae ^^
     
  6. chocon1970

    chocon1970 New Member

    Tham gia ngày:
    3/4/11
    Bài viết:
    29
    Đã được cảm ơn:
    1
    Điểm thành tích:
    3
    Tiền:
    167 CR
    Ðề: [ Bikini | Remux | M2TS | 1link ] Beach Angels Kurashina Kana in South Stradbroke Island Blu-ray 1080i AVC.DD2.0 - Người Đẹp Nhật Bản

    Lạc vào hoang đảo ma gặp được em này thì sướng phải biết
     
    toandx147 cảm ơn bài này.
  7. tuankhai

    tuankhai Well-Known Member

    Tham gia ngày:
    13/6/11
    Bài viết:
    2,661
    Đã được cảm ơn:
    43
    Điểm thành tích:
    48
    Giới tính:
    Nam
    Tiền:
    1,145 CR
    Ðề: [ Bikini | Remux | M2TS | 1link ] Beach Angels Kurashina Kana in South Stradbroke Island Blu-ray 1080i AVC.DD2.0 - Người Đẹp Nhật Bản

    Xem cái này chỉ khổ thôi, thanks bác
     
    toandx147 cảm ơn bài này.

Chia sẻ trang này