[Fshare] 80s Greatest Football Moments 2013 1080i HDTV-KhoHD - Khoảnh khắc bóng đá

Thảo luận trong 'Phim tài liệu - Documentaries' bắt đầu bởi hoaitrung, 23/3/14.

  1. hoaitrung

    hoaitrung Moderator Thành viên BQT

    Tham gia ngày:
    13/12/09
    Bài viết:
    1,992
    Đã được cảm ơn:
    38,812
    Điểm thành tích:
    113
    Giới tính:
    Nam
    Nghề nghiệp:
    HD Documentaries
    Nơi ở:
    Việt Nam
    Web:
    Tiền:
    5,020 CR
    80s Greatest Football Moments 2013 1080i HDTV-KhoHD
    Tiêu điểm thập niên 80 - Những khoảnh khắc bóng đá

    [​IMG]

    Đây là những khoảnh khắc bóng đá đáng nhớ nhất của thập niên 80. Bóng đá là môn thể thao tuyệt vời, là thứ hấp dẫn nhất hành tinh vào thời kì đó. Những đội bóng, những cầu thủ vĩ đại đã được sản sinh ra. Những thiên tài như Maradona, Platini, Zico..đã làm cho thế giới phát cuồng vì hâm mộ. Thập niên 80 đã thay đổi vĩnh viễn bộ mặt của bóng đá, đó là lần cuối nó được gọi là môn thể thao đại chúng. Đã tạo nên diện mạo ngày nay của môn thể thao Vua. Bộ phim sẽ mang đến cho bạn những khoảnh khắc tuyệt vời nhất, bất ngờ nhất và đáng nhớ nhất!
    Chia sẻ : Hoai Trung - KhoHD
    [​IMG]

    [​IMG]

    [​IMG]
    [​IMG]
    [​IMG]
    [​IMG]
    [​IMG]
    [​IMG]

    Mã:
    80s Greatest - Football Moments\National.Geographic.80s.Greatest.Football.Moments.2013.HDTV.1080p.x264-KhoHD.mkv
    Format                                   : Matroska
    Format version                           : Version 4 / Version 2
    File size                                : 2.88 GiB
    Duration                                 : 44mn 58s
    Overall bit rate mode                    : Variable
    Overall bit rate                         : 9 160 Kbps
    Encoded date                             : UTC 2014-03-23 06:08:36
    Writing application                      : mkvmerge v6.8.0 ('Theme for Great Cities') 64bit built on Mar  2 2014 21:34:26
    Writing library                          : libebml v1.3.0 + libmatroska v1.4.1
    Video
    ID                                       : 1
    Format                                   : AVC
    Format/Info                              : Advanced Video Codec
    Format profile                           : High@L4.1
    Format settings, CABAC                   : Yes
    Format settings, ReFrames                : 3 frames
    Codec ID                                 : V_MPEG4/ISO/AVC
    Duration                                 : 44mn 58s
    Bit rate mode                            : Variable
    Bit rate                                 : 8 969 Kbps
    Maximum bit rate                         : 40.0 Mbps
    Width                                    : 1 920 pixels
    Height                                   : 1 080 pixels
    Display aspect ratio                     : 16:9
    Frame rate mode                          : Constant
    Frame rate                               : 23.976 fps
    Color space                              : YUV
    Chroma subsampling                       : 4:2:0
    Bit depth                                : 8 bits
    Scan type                                : Progressive
    Bits/(Pixel*Frame)                       : 0.180
    Stream size                              : 2.76 GiB (96%)
    Writing library                          : x264 core 133
    Encoding settings                        : cabac=1 / ref=4 / deblock=1:3:3 / analyse=0x3:0x133 / me=umh / subme=9 / psy=1 / psy_rd=1.00:0.00 / mixed_ref=1 / me_range=32 / chroma_me=1 / trellis=2 / 8x8dct=1 / cqm=0 / deadzone=21,11 / fast_pskip=1 / chroma_qp_offset=-2 / threads=8 / lookahead_threads=1 / sliced_threads=0 / nr=1 / decimate=1 / interlaced=fake / bluray_compat=1 / constrained_intra=0 / bframes=3 / b_pyramid=1 / b_adapt=2 / b_bias=0 / direct=1 / weightb=0 / open_gop=1 / weightp=1 / keyint=24 / keyint_min=1 / scenecut=40 / intra_refresh=0 / rc_lookahead=24 / rc=2pass / mbtree=0 / bitrate=8969 / ratetol=1.0 / qcomp=0.60 / qpmin=10 / qpmax=69 / qpstep=4 / cplxblur=20.0 / qblur=0.5 / vbv_maxrate=40000 / vbv_bufsize=30000 / nal_hrd=vbr / ip_ratio=1.40 / pb_ratio=1.30 / aq=1:1.00
    Default                                  : Yes
    Forced                                   : No
    Color primaries                          : BT.709
    Transfer characteristics                 : BT.709
    Matrix coefficients                      : BT.709
    Audio
    ID                                       : 2
    Format                                   : MPEG Audio
    Format version                           : Version 1
    Format profile                           : Layer 2
    Codec ID                                 : A_MPEG/L2
    Codec ID/Hint                            : MP2
    Duration                                 : 44mn 58s
    Bit rate mode                            : Constant
    Bit rate                                 : 192 Kbps
    Channel(s)                               : 2 channels
    Sampling rate                            : 48.0 KHz
    Compression mode                         : Lossy
    Delay relative to video                  : -83ms
    Stream size                              : 61.8 MiB (2%)
    Language                                 : English
    Default                                  : Yes
    Forced                                   : No
    
    DOWNLOAD PHIM VÀ PHỤ ĐỀ VIỆT NGỮ
    Nhấn nút Cảm ơn (dưới chân bài) để thấy link!

     
    Chỉnh sửa cuối: 14/8/19
    thuc, habtc, manh356 and 77 others like this.
  2. sutu

    sutu Active Member

    Tham gia ngày:
    25/4/09
    Bài viết:
    542
    Đã được cảm ơn:
    130
    Điểm thành tích:
    43
    Tiền:
    3,422 CR
    Ðề: National Geographic 80s Greatest Football Moments 2013 HDTV 1080p x264-KhoHD - Khoảnh khắc bóng đá thập niên 80

    Một thời để nhớ, bóng đá đẹp như mơ!
    Thanks bác hoai trung!
     
  3. puppygoody

    puppygoody Active Member

    Tham gia ngày:
    25/1/10
    Bài viết:
    444
    Đã được cảm ơn:
    46
    Điểm thành tích:
    28
    Tiền:
    1,703 CR
    Ðề: National Geographic 80s Greatest Football Moments 2013 HDTV 1080p x264-KhoHD - Khoảnh khắc bóng đá thập niên 80

    Cám ơn bác chủ. Trở về những khoảnh khắc tuổi đôi mươi. Nhớ về lúc đó thật là khó khăn về thông tin, thậm chí có nhà còn phải xem bằng TV đen trắng.
     
  4. anhtuan2011

    anhtuan2011 New Member

    Tham gia ngày:
    18/2/11
    Bài viết:
    3
    Đã được cảm ơn:
    0
    Điểm thành tích:
    1
    Tiền:
    105 CR
    Cam ơn
     
  5. Le Sam

    Le Sam New Member

    Tham gia ngày:
    27/7/19
    Bài viết:
    22
    Đã được cảm ơn:
    14
    Điểm thành tích:
    3
    Tiền:
    23 CR
    Ad ơi cho mình xin link nhé.
     
    #5 +1 CR
  6. hoaitrung

    hoaitrung Moderator Thành viên BQT

    Tham gia ngày:
    13/12/09
    Bài viết:
    1,992
    Đã được cảm ơn:
    38,812
    Điểm thành tích:
    113
    Giới tính:
    Nam
    Nghề nghiệp:
    HD Documentaries
    Nơi ở:
    Việt Nam
    Web:
    Tiền:
    5,020 CR
    Đã reup rồi, thanks!
     
    Le Sam and tlamhp like this.
  7. tlamhp

    tlamhp Active Member

    Tham gia ngày:
    23/7/12
    Bài viết:
    459
    Đã được cảm ơn:
    202
    Điểm thành tích:
    43
    Giới tính:
    Nam
    Nghề nghiệp:
    Housekeeper
    Nơi ở:
    Oakland CA USA
    Tiền:
    1,063 CR
    Tuổi nào mà cứ thấy bóng đá là đã thấy ngứa ngáy chân tay rồi.
     
    #7 +1 CR
    hoaitrung cảm ơn bài này.
  8. Le Sam

    Le Sam New Member

    Tham gia ngày:
    27/7/19
    Bài viết:
    22
    Đã được cảm ơn:
    14
    Điểm thành tích:
    3
    Tiền:
    23 CR
    Thank ad nhieu!
     
    #8 +1 CR

Chia sẻ trang này