[4K HDR x265] Bumblebee 2018 2160p UHD BluRay TrueHD Atmos 7.1 HDR x265-Internal ~ Robot Đại Chiến

Thảo luận trong '4K' bắt đầu bởi hungdaita, 25/3/19.

  1. hungdaita

    hungdaita ☆☆☆ TayTO ☆☆☆

    Tham gia ngày:
    18/3/12
    Bài viết:
    62,979
    Đã được cảm ơn:
    1,140,225
    Điểm thành tích:
    113
    Giới tính:
    Nam
    Nghề nghiệp:
    Encoder ~ Share more share
    Nơi ở:
    Hà Nội - Việt Nam
    Web:
    Tiền:
    28,106 CR
    Bumblebee 2018 2160p UHD BluRay TrueHD Atmos 7.1 HDR x265-CHD
    {Sub Việt | Bom Tấn | Chiếu Rạp}
    Robot Đại Chiến
    Hailee Steinfeld, John Cena, Jorge Lendeborg Jr.


    [​IMG]



    [​IMG]
    [​IMG]







    Bumblebee 2018 BluRay 2160p TrueHD 7.1 Atmos x265 10bit-CHD
    RELEASE DATE....: 03/26/2019
    THEATRE DATE....: 2018
    iMDB URL........: http://www.imdb.com/title/tt4701182/
    iMDB RATiNG.....: 7.0/10 64,524 votes
    GENRE...........: Action, Adventure, Sci-Fi
    SOURCE .........: Bumblebee 2018 ULTRAHD Blu-ray 2160p HEVC Atmos TrueHD 7.1-sGnb@CHDBits
    ViDEO BiTRATE...: L6 Main10 @ 24.1 Mbps
    FRAME RATE......: 23.976 fps
    AUDiO...........: English Atmos / TrueHD @ 4736 Kbps
    RUNTiME.........: 01:53:53.500 (h:m:s)
    ASPECT RATiO....: 16 : 9
    RESOLUTiON......: 3840 x 2160
    SUBTiTLES.......: English | Chinese
    FilE SiZE.......: 27.66 G
    ENCODER.........: kanlei28 @ CHD

    Full Media Info:

    General
    Unique ID : 275918540122411614614475868278646758269 (0xCF93FA554069953EDDE5E7D81535DB7D)
    Complete name : Bumblebee 2018 2160p UHD BluRay TrueHD Atmos 7.1 HDR x265-CHD\Bumblebee 2018 2160p UHD BluRay TrueHD Atmos 7.1 HDR x265-CHD.mkv
    Format : Matroska
    Format version : Version 4
    File size : 27.7 GiB
    Duration : 1 h 53 min
    Overall bit rate mode : Variable
    Overall bit rate : 34.8 Mb/s
    Encoded date : UTC 2019-03-26 07:06:48
    Writing application : mkvmerge v25.0.0 ('Prog Noir') 32-bit
    Writing library : libebml v1.3.6 + libmatroska v1.4.9

    Video #1
    ID : 1
    Format : HEVC
    Format/Info : High Efficiency Video Coding
    Commercial name : HDR10
    Format profile : Main 10@L6@Main
    Codec ID : V_MPEGH/ISO/HEVC
    Duration : 1 h 53 min
    Bit rate : 24.1 Mb/s
    Width : 3 840 pixels
    Height : 2 160 pixels
    Display aspect ratio : 16:9
    Frame rate mode : Constant
    Frame rate : 23.976 (23976/1000) FPS
    Color space : YUV
    Chroma subsampling : 4:2:0
    Bit depth : 10 bits
    Bits/(Pixel*Frame) : 0.121
    Stream size : 19.2 GiB (69%)
    Writing library : x265 2.7+25-e1ed4d609b52:[Windows][MSVC 1914][64 bit] 10bit
    Encoding settings : cpuid=1173503 / frame-threads=6 / numa-pools=24,24 / wpp / no-pmode / no-pme / no-psnr / no-ssim / log-level=2 / input-csp=1 / input-res=3840x2160 / interlace=0 / total-frames=0 / level-idc=0 / high-tier=1 / uhd-bd=0 / ref=6 / no-allow-non-conformance / repeat-headers / annexb / no-aud / no-hrd / info / hash=0 / no-temporal-layers / no-open-gop / min-keyint=23 / keyint=250 / gop-lookahead=0 / bframes=8 / b-adapt=2 / b-pyramid / bframe-bias=0 / rc-lookahead=24 / lookahead-slices=8 / scenecut=40 / radl=0 / no-intra-refresh / ctu=64 / min-cu-size=8 / no-rect / no-amp / max-tu-size=32 / tu-inter-depth=1 / tu-intra-depth=1 / limit-tu=0 / rdoq-level=0 / dynamic-rd=0.00 / no-ssim-rd / signhide / no-tskip / nr-intra=0 / nr-inter=0 / no-constrained-intra / no-strong-intra-smoothing / max-merge=2 / limit-refs=3 / no-limit-modes / me=3 / subme=5 / merange=64 / temporal-mvp / weightp / weightb / no-analyze-src-pics / deblock=-2:-1 / sao / no-sao-non-deblock / rd=5 / no-early-skip / rskip / no-fast-intra / no-tskip-fast / no-cu-lossless / no-b-intra / no-splitrd-skip / rdpenalty=0 / psy-rd=2.00 / psy-rdoq=0.00 / no-rd-refine / no-lossless / cbqpoffs=0 / crqpoffs=0 / rc=crf / crf=16.0 / qcomp=0.60 / qpstep=4 / stats-write=0 / stats-read=0 / ipratio=1.40 / pbratio=1.30 / aq-mode=1 / aq-strength=1.00 / cutree / zone-count=0 / no-strict-cbr / qg-size=32 / no-rc-grain / qpmax=69 / qpmin=0 / no-const-vbv / sar=0 / overscan=0 / videoformat=5 / range=0 / colorprim=9 / transfer=16 / colormatrix=9 / chromaloc=0 / display-window=0 / master-display=G(13250,34500)B(7500,3000)R(34000,16000)WP(15635,16450)L(10000000,1) / max-cll=0,0 / min-luma=0 / max-luma=1023 / log2-max-poc-lsb=8 / vui-timing-info / vui-hrd-info / slices=1 / no-opt-qp-pps / no-opt-ref-list-length-pps / no-multi-pass-opt-rps / scenecut-bias=0.05 / no-opt-cu-delta-qp / aq-motion / hdr / hdr-opt / no-dhdr10-opt / no-idr-recovery-sei / analysis-reuse-level=5 / scale-factor=0 / refine-intra=0 / refine-inter=0 / refine-mv=0 / no-limit-sao / ctu-info=0 / no-lowpass-dct / refine-mv-type=0 / copy-pic=1 / max-ausize-factor=1.0 / no-dynamic-refine / no-single-sei
    Default : Yes
    Forced : No
    Color range : Limited
    Color primaries : BT.2020
    Transfer characteristics : PQ
    Matrix coefficients : BT.2020 non-constant
    Mastering display color primaries : Display P3
    Mastering display luminance : min: 0.0001 cd/m2, max: 1000 cd/m2

    Video #2
    ID : 2
    Format : HEVC
    Format/Info : High Efficiency Video Coding
    Commercial name : HDR10
    Format profile : Main 10@L5.1@High
    Codec ID : V_MPEGH/ISO/HEVC
    Duration : 1 h 53 min
    Bit rate : 5 576 kb/s
    Width : 1 920 pixels
    Height : 1 080 pixels
    Display aspect ratio : 16:9
    Frame rate mode : Constant
    Frame rate : 23.976 (24000/1001) FPS
    Color space : YUV
    Chroma subsampling : 4:2:0 (Type 2)
    Bit depth : 10 bits
    Bits/(Pixel*Frame) : 0.112
    Stream size : 4.44 GiB (16%)
    Default : No
    Forced : No
    Color range : Limited
    Color primaries : BT.2020
    Transfer characteristics : PQ
    Matrix coefficients : BT.2020 non-constant
    Mastering display color primaries : Display P3
    Mastering display luminance : min: 0.0001 cd/m2, max: 1000 cd/m2

    Audio
    ID : 3
    Format : MLP FBA 16-ch
    Format/Info : Meridian Lossless Packing FBA with 16-channel presentation
    Commercial name : Dolby TrueHD with Dolby Atmos
    Codec ID : A_TRUEHD
    Duration : 1 h 53 min
    Bit rate mode : Variable
    Bit rate : 4 736 kb/s
    Maximum bit rate : 7 761 kb/s
    Channel(s) : 8 channels
    Channel layout : L R C LFE Ls Rs Lb Rb
    Sampling rate : 48.0 kHz
    Frame rate : 1 200.000 FPS (40 SPF)
    Compression mode : Lossless
    Stream size : 3.77 GiB (14%)
    Language : English
    Default : Yes
    Forced : No
    Number of dynamic objects : 11
    Bed channel count : 1 channel
    Bed channel configuration : LFE

    Text #1
    ID : 4
    Format : PGS
    Muxing mode : zlib
    Codec ID : S_HDMV/PGS
    Codec ID/Info : Picture based subtitle format used on BDs/HD-DVDs
    Duration : 1 h 48 min
    Bit rate : 35.7 kb/s
    Count of elements : 3302
    Stream size : 27.8 MiB (0%)
    Language : English
    Default : Yes
    Forced : No

    Text #2
    ID : 5
    Format : PGS
    Muxing mode : zlib
    Codec ID : S_HDMV/PGS
    Codec ID/Info : Picture based subtitle format used on BDs/HD-DVDs
    Duration : 1 h 52 min
    Bit rate : 100 kb/s
    Count of elements : 4348
    Stream size : 80.8 MiB (0%)
    Title : 简体特效
    Language : Chinese
    Default : No
    Forced : No

    Text #3
    ID : 6
    Format : PGS
    Muxing mode : zlib
    Codec ID : S_HDMV/PGS
    Codec ID/Info : Picture based subtitle format used on BDs/HD-DVDs
    Duration : 1 h 51 min
    Bit rate : 101 kb/s
    Count of elements : 4346
    Stream size : 80.7 MiB (0%)
    Title : 繁体特效
    Language : Chinese
    Default : No
    Forced : No

    Text #4
    ID : 7
    Format : PGS
    Muxing mode : zlib
    Codec ID : S_HDMV/PGS
    Codec ID/Info : Picture based subtitle format used on BDs/HD-DVDs
    Duration : 1 h 51 min
    Bit rate : 124 kb/s
    Count of elements : 4348
    Stream size : 99.4 MiB (0%)
    Title : 简英双语特效
    Language : Chinese
    Default : No
    Forced : No

    Text #5
    ID : 8
    Format : PGS
    Muxing mode : zlib
    Codec ID : S_HDMV/PGS
    Codec ID/Info : Picture based subtitle format used on BDs/HD-DVDs
    Duration : 1 h 51 min
    Bit rate : 124 kb/s
    Count of elements : 4348
    Stream size : 99.3 MiB (0%)
    Title : 繁英双语特效
    Language : Chinese
    Default : No
    Forced : No

    Text #6
    ID : 9
    Format : PGS
    Muxing mode : zlib
    Codec ID : S_HDMV/PGS
    Codec ID/Info : Picture based subtitle format used on BDs/HD-DVDs
    Duration : 1 h 53 min
    Bit rate : 19.6 kb/s
    Count of elements : 2322
    Stream size : 15.8 MiB (0%)
    Title : 原盘粤语字幕
    Language : Chinese
    Default : No
    Forced : No

    Text #7
    ID : 10
    Format : PGS
    Muxing mode : zlib
    Codec ID : S_HDMV/PGS
    Codec ID/Info : Picture based subtitle format used on BDs/HD-DVDs
    Duration : 1 h 53 min
    Bit rate : 18.6 kb/s
    Count of elements : 2334
    Stream size : 15.0 MiB (0%)
    Title : 原盘繁体中文
    Language : Chinese
    Default : No
    Forced : No

    Menu
    00:00:00.000 : en:00:00:00.000
    00:03:30.710 : en:00:03:30.710
    00:12:16.486 : en:00:12:16.486
    00:16:56.724 : en:00:16:56.724
    00:21:03.053 : en:00:21:03.053
    00:26:42.601 : en:00:26:42.601
    00:32:33.326 : en:00:32:33.326
    00:39:44.090 : en:00:39:44.090
    00:45:18.591 : en:00:45:18.591
    00:50:43.624 : en:00:50:43.624
    00:54:16.253 : en:00:54:16.253
    01:01:10.709 : en:01:01:10.709
    01:06:26.900 : en:01:06:26.900
    01:11:39.545 : en:01:11:39.545
    01:16:08.105 : en:01:16:08.105
    01:21:37.142 : en:01:21:37.142
    01:25:08.603 : en:01:25:08.603
    01:30:15.410 : en:01:30:15.410
    01:36:46.801 : en:01:36:46.801
    01:43:52.560 : en:01:43:52.560
    01:49:43.202 : en:01:49:43.202




    [​IMG]




    Bản mHD :
    Bumblebee 2018 ViE 1080p BluRay DD-EX 5.1 x264-MPAD {Sub Việt | Thuyết Minh} = 3.86 GB

    Bumblebee 2018 1080p BluRay DD-EX 5.1 x264-MPAD {Sub Việt Mux Sẵn} = 3.35 GB

    Bumblebee 2018 ViE mHD BluRay DD-EX 5.1 x264-HDT {Sub Việt | Thuyết Minh} = 3.2 GB

    Bumblebee 2018 mHD BluRay DD-EX 5.1 x264-HDT {Sub Việt Mux Sẵn} = 2.7 GB

    Bumblebee 2018 720p iPad BluRay AAC 5.1 x264-HDT.mp4 {HardSub Việt} = 1.86 GB

    Bản 720p :
    Bumblebee 2018 720p BluRay DTS-ES x264-LoRD {Sub Việt Mux Sẵn} = 8.99 GB

    Bumblebee 2018 720p BluRay DD-EX 5.1 x264-LoRD {Internal} = 8.30 GB

    Bumblebee 2018 720p BluRay DTS-ES x264-CRiSC {Sub Việt Mux Sẵn} = 8.95 GB

    Bumblebee 2018 720p BluRay DD-EX 5.1 x264-CRiSC {Internal} = 8.25 GB

    Bumblebee 2018 ViE 720p BluRay DTS-ES x264-MTeam {Sub Việt | Thuyết Minh} = 8.6 GB

    Bumblebee 2018 720p BluRay DTS-ES x264-MTeam {Sub Việt Mux Sẵn} = 8.08 GB

    Bumblebee 2018 720p BluRay DD-EX 5.1 x264-MTeam {Internal} = 7.4 GB

    Bumblebee 2018 720p BluRay DD-EX 5.1 x264-WiKi {Internal} = 6.55 GB

    Bumblebee 2018 ViE 720p BluRay DTS x264-SPARKS {Sub Việt | Thuyết Minh} = 5.58 GB

    Bumblebee 2018 720p BluRay DD-EX 5.1 x264-SPARKS {Scene} = 4.37 GB

    Bản 1080p :
    Bumblebee 2018 1080p BluRay TrueHD Atmos 7.1 x264-HDVN {Sub Việt Mux Sẵn} = 21.74 GB

    Bumblebee 2018 1080p BluRay DD+7.1 x264-HDVN {Sub Việt Mux Sẵn} = 18.63 GB

    Bumblebee 2018 1080p BluRay DD+7.1 x264-Geek {Internal ORG} = 17.17 GB

    Bumblebee 2018 1080p UHD BluRay DD+7.1 HDR x265-DON {Internal} = 16.33 GB

    Bumblebee 2018 ViE 1080p BluRay TrueHD Atmos 7.1 x264-MTeam {Sub Việt | Thuyết Minh} = 19.86 GB

    Bumblebee 2018 1080p BluRay TrueHD Atmos 7.1 x264-MTeam {Internal} = 18.66 GB

    Bumblebee 2018 1080p BluRay DTS-ES x264-MTeam {Sub Việt Mux Sẵn} = 16.03 GB

    Bumblebee 2018 1080p BluRay TrueHD Atmos 7.1 x264-CHD {Internal} = 17.33 GB

    Bumblebee 2018 1080p BluRay DD-EX 5.1 x264-CHD {Internal} = 14.03 GB

    Bumblebee 2018 1080p BluRay DD-EX 5.1 x264-WiKi {Internal} = 12.99 GB

    Bumblebee 2018 1080p BluRay TrueHD Atmos 7.1 10bit x265-CHD {Internal} = 11.02 GB

    Bumblebee 2018 ViE 1080p BluRay DTS x264-SPARKS {Sub Việt | Thuyết Minh} = 8.86 GB

    Bumblebee 2018 1080p BluRay DD-EX 5.1 x264-SPARKS {Scene} = 7.65 GB

    Bumblebee 2018 ViE 1080p WEB-DL DD+5.1 H.264-NTG {Thuyết Minh} = 8.51 GB

    Bumblebee 2018 1080p WEB-DL DD+5.1 H.264-NTG {Internal} = 8 GB

    Bản 1080p Blu-ray REMUX FULL CHAPTER:
    Bumblebee 2018 ViE 1080p Blu-ray Remux AVC TrueHD Atmos 7.1-HDT.mkv {Sub Việt | Thuyết Minh} = 29.68 GB

    Bumblebee 2018 1080p Blu-ray Remux AVC TrueHD Atmos 7.1-KRaLiMaRKo.mkv {Internal} = 26.58 GB

    Bản 1080p Blu-ray REMUX M2TS :
    Bumblebee 2018 1080p Blu-ray Remux AVC TrueHD Atmos 7.1-HDT.m2ts {Internal} = 32.26 GB

    Bản 1080p Blu-ray ISO Nguyên Gốc :
    Bumblebee 2018 1080p Blu-ray AVC TrueHD Atmos 7.1-MTeam.iso {Internal} = 45.05 GB

    Bản 2160p :
    Bumblebee 2018 2160p UHD BluRay TrueHD Atmos 7.1 HDR x265-CHD {Internal} = 27.66 GB

    Bumblebee 2018 ViE 2160p UHD BluRay TrueHD Atmos 7.1 HDR x265-TERMiNAL {Sub Việt | Thuyết Minh} = 22.66 GB

    Bumblebee 2018 2160p UHD BluRay TrueHD Atmos 7.1 HDR x265-TERMiNAL {Scene} = 21.46 GB

    Bumblebee 2018 2160p WEB-DL DD+5.1 HDR HEVC-DEFLATE {Internal} = 11.09 GB

    Bản 2160p UHD Blu-ray Remux :
    Bumblebee 2018 ViE 2160p UHD Blu-ray Remux HEVC TrueHD Atmos 7.1-HDT.mkv {Sub Việt | Thuyết Minh} = 47.86 GB

    Bản 2160p UHD Blu-ray REMUX M2TS :
    Bumblebee 2018 2160p UHD Blu-ray Remux HEVC TrueHD Atmos 7.1-HDT.m2ts {Internal} = 59.3 GB

    Bản 2160p UHD Blu-ray ISO Nguyên Gốc :
    Bumblebee 2018 2160p UHD Blu-ray HEVC TrueHD Atmos 7.1-BeyondHD.iso {Internal} = 61.2 GB
     
    Chỉnh sửa cuối: 14/4/19
  2. hungdaita

    hungdaita ☆☆☆ TayTO ☆☆☆

    Tham gia ngày:
    18/3/12
    Bài viết:
    62,979
    Đã được cảm ơn:
    1,140,225
    Điểm thành tích:
    113
    Giới tính:
    Nam
    Nghề nghiệp:
    Encoder ~ Share more share
    Nơi ở:
    Hà Nội - Việt Nam
    Web:
    Tiền:
    28,106 CR
    Bumblebee 2018 2160p UHD BluRay TrueHD Atmos 7.1 HDR x265-TERMiNAL
    {Sub Việt | Bom Tấn | Chiếu Rạp}
    Robot Đại Chiến
    Hailee Steinfeld, John Cena, Jorge Lendeborg Jr.


    [​IMG]



    [​IMG]
    [​IMG]






    Technical Information
    RELEASE NAME..: Bumblebee 2018 2160p UHD BluRay TrueHD Atmos 7.1 HDR x265-TERMiNAL
    RELEASE SiZE..: 21.5 GiB
    RUNTiME.......: 1h 53mn
    VIDEO CODEC...: HEVC
    FRAMERATE.....: 23.976 fps
    BiTRATE.......: 21300 kbps
    RESOLUTiON....: 3840x2160
    AUDIO.........: English TrueHD Atmos 7.1 @ 4736 kbps
    AUDIO.........: English DD-EX 5.1 @ 640 kbps (Core)
    CHAPTERS......: Yes
    SUBTITLES.....: English,English,Arabic,Malay,Chinese,Chinese,Czech,Danish,Greek,Spanish,
    SUBTITLES.....: French,French,Hindi,Icelandic,Italian,Korean,Hungarian,Dutch,Norwegian,
    SUBTITLES.....: Polish,Portuguese,Portuguese,Russian,Romanian,Slovak,Finnish,Swedish,Thai,Turkish.





    [​IMG]



     
    kudoo113, bb05, hoangminhhp and 39 others like this.
  3. luke72

    luke72 Member

    Tham gia ngày:
    9/1/11
    Bài viết:
    44
    Đã được cảm ơn:
    18
    Điểm thành tích:
    8
    Tiền:
    437 CR
    thanks
     
    #3 +1 CR
  4. luke72

    luke72 Member

    Tham gia ngày:
    9/1/11
    Bài viết:
    44
    Đã được cảm ơn:
    18
    Điểm thành tích:
    8
    Tiền:
    437 CR
    thank you
     
    #4 +1 CR
  5. dungpham2808

    dungpham2808 Well-Known Member

    Tham gia ngày:
    14/10/10
    Bài viết:
    1,115
    Đã được cảm ơn:
    501
    Điểm thành tích:
    113
    Tiền:
    3,536 CR
    Bác chủ cho hỏi 2 ban 2016 remux. Sao bản có sub đính kèm và thuyêtnminh lại nhẹ hơn vậy bác. Mình nghỉ nó phải nặng hơn chứ
    Mà chất lượng hình ảnh thì thế nào giống nhau không bác
     
  6. beou

    beou Active Member

    Tham gia ngày:
    12/11/09
    Bài viết:
    160
    Đã được cảm ơn:
    178
    Điểm thành tích:
    43
    Tiền:
    617 CR
    2 nhóm rip khác nhau mà bác. 1 bản của CHD còn bản kia của TERMINAL. hình ảnh thì chắc bản CHD hơn mà e nghĩ cũng khó phân biệt nổi hihi
     
    #6 +1 CR
  7. Hoangvu1905

    Hoangvu1905 New Member

    Tham gia ngày:
    14/4/19
    Bài viết:
    1
    Đã được cảm ơn:
    0
    Điểm thành tích:
    1
    Giới tính:
    Nam
    Tiền:
    1 CR
    thank you. :)
     

Chia sẻ trang này